Jun 08, 2015 · A bit late to this, but for future reference, in case it helps anyone, here is how to deal with this problem with FFmpeg. When exporting, say, an uncompressed AVI from After Effects, sometimes the FFmpeg conversion seems to lack contrast, as if the range was being compressed. Adding -pix_fmt yuvj420p. "/> neway karaoke price list 2022
  • adventhealth ocala er

    • 6 gauge prince albert

      1) ffmpeg is detecting incoming rtsp pixel format as yuvj420p . 2) ffmpeg can record it to avi container without re-encoding it again using above command 3) but ffmpeg cannot re-stream/save it to any flv container file without re-encoding again with libx264. my question is why we are hitting this issue for yuvj420p pixel format in ffmpeg ?.

      • which branch enforces laws 2022 lamborghini countach specs
      • dollyd suicide girl nude tom keifer setlist
    • darkside movie porn free download

      led wire size calculator

      • warhammer fantasy 8th edition starter set corvus os supported devices list
      • pendleton rain boots mens given that d is the midpoint of ab and k is the midpoint of bc
    • azureadpreview powershell 7

      limited vs reasonable assurance

      • quickbooks desktop pro 2021 no subscription ebay free trendline indicator for mt4
      • ps vita could not connect to pc infinitode 2 save file location
    • habibi capcut template link

      May 26, 2018 · go to FFmpeg builds web page, choose Windows 64-bit architecture, static linking and Download build. create directory c:\\ffmpeg and extract zip content into it, go to Control Panel->System->Edit system environment variables and click on Environment variables. in System variables locate and select Path row, click Edit and add value c:\ffmpeg\bin..

      • does iodine protect against radiation diana air gun spare parts
      • femdom empire videos movierulz tamilrockers 2022 download
    • netplan add route via interface

      not recognised by ffmpeg/ffprobe. Complete, uncut console output missing. ... Stream #0:0: Video: h264, yuvj420p, 1920x1080 [SAR 1:1 DAR 16:9], q=2-31, 25 fps, 90k .... yuvj420p, so this doesn't make sense. The only supported colourspace for all mpeg4 asp encoder and decoder I know is yuv420p. Since it is the only supported colourspace in FFmpeg's encoder you don't have to specify it. Carl Eugen. I've been using ffmpeg to go to DNxHD if I'm coming into Resolve. This takes space, but is faster to process and less artifacts. Windows 10 Pro Resolve ... Video: h264 (High) (avc1 / 0x31637661), yuvj420p(pc), 1664x954 [SAR 1:1 DAR 832:477], 20875 kb/s, 60 fps, 60 tbr, 15360 tbn, 120 tbc (default) This also fails to load in. Jan 22, 2013 · [scale @ 0x109133bc0] w:240 h:240 fmt:yuvj420p sar:1/1 -> w:240 h:240 fmt:yuv420p sar:1/1 flags:0x4 [mp4 @ 0x7fa123035c00] Frame rate very high for a muxer not efficiently supporting it. Please consider specifying a lower framerate, a different muxer or -vsync 2. Dec 03, 2017 · The warning occurs when converting from a yuv420p source to JPEG, which makes ffmpeg choose yuvj420p as output format. That format is required for writing files with the mjpeg encoder. These two pixel formats have different color ranges: the former is from 16–235, which is "limited range" (also called "MPEG" range), the latter defaults to 0 .... 如果你的YUV格式为YUV422p,因为软件默认的YUV格式为420p,所以你需要声明你的YUV格式,指令如下: # ./ffmpeg -s 1920*1080 -pix_fmt yuv422p -i source.YUV -r 25 -b 8000k -y source.mp4 。 第一,不要享受懒惰。 如果你从内心享受懒惰的过程就不要说自己累。 第二, 让身体动起来。 要运动, 多见朋友, 要工作, 不要喝酒,早睡早起。 第三,任何事情,今天开始就要去做。 如果现在不做就说明你还在享受着懒惰。 如果做不到, 就请不要抱怨。 标签: 转格式, YUV, ffmpeg 好文要顶 关注我 收藏该文 abamon-joy 粉丝 - 0 关注 - 8 +加关注 1 0 « 上一篇: 排序算法总结.

      • wotlk assassination rogue poisons citizen promaster navihawk blue angels
      • apple stock price prediction 2030 tarzan monkeys in florida
    • stranger things script template shifting

      trollge roblox id

      • poverty rate in us 2022 husqvarna yta18542 drive belt diagram
      • git pull request command line purex process pdf
    • beat saber mod assistant

      convert json to mp4

      • professional gunsmithing tools fastace forks sur ron
      • 360 gigapixel paris extra large canvas bag with zipper

Ffmpeg yuvj420p

  1. pete the cat pdf

    1. save tensorflow model as pickle

      jab tak hai jaan mp3 song download pagalworld

      Encoded using ffmpeg, x264, CRF 16. File size = 9.0 MB; upload video range = 16-235ffmpeg command line includes "-pix_fmt yuv420p"file="NFS5 zone3 testramp r....

      26.4k
      posts
    2. postgres query parameters

      trip undss security clearance

      When I encode with ffmpeg on Ubuntu 18, the default encoder h264 (libx264) uses by default the pixel format yuvj420p. But https://ffmpeg.org/doxygen/trunk/pixfmt_8h_source.html says that AV_PIX_FMT_YUVJ420P is "full scale (JPEG), deprecated in favor of AV_PIX_FMT_YUV420P and setting color_range.". 2. Pursue an FFmpeg solution that stops or force a different pixel format for the Nikon source files compatible with yuv420p codecs like h264, DNxHD etc. Bug report to FFmpeg maybe, maybe there is already a solution. 3. Pursue a custom Kdenlive Encoding Profile that uses yuvj420p pixel format. Not sure this is going to work as FFmpeg is. May 03, 2021 · As I saw in other closed issues, the patched version can work with yuvj420p, but in my deploy it isn't supported. ... Nano with Jetpack 4.5.1. ffmpeg version c9f3835 .... May 03, 2021 · As I saw in other closed issues, the patched version can work with yuvj420p, but in my deploy it isn't supported. ... Nano with Jetpack 4.5.1. ffmpeg version c9f3835 .... AV1 is an open source & royalty-free video codec developed by the Alliance for Open Media (AOMedia), a non-profit industry consortium. Depending on the use case, AV1 can achieve about 30% higher compression efficiency than VP9, and about 50% higher efficiency than H.264. There are currently three AV1 encoders supported by FFmpeg: libaom .... Pandas how to find column contains a certain value Recommended way to install multiple Python versions on Ubuntu 20.04 Build super fast web scraper with Python x100 than BeautifulSoup How to convert a SQL query result to a Pandas DataFrame in Python How to write a Pandas DataFrame to a .csv file in Python. A bit late to this, but for future reference, in case it helps anyone, here is how to deal with this problem with FFmpeg. When exporting, say, an uncompressed AVI from After Effects, sometimes the FFmpeg conversion seems to lack contrast, as if the range was being compressed. Adding -pix_fmt yuvj420p. 用ffmpeg把H264数据流解码成YUV420P - DoubleLi - 博客园 用ffmpeg把H264数据流解码成YUV420P 在网上找了很久这方面的内容,发现网上的代码都太旧了,所使用的函数旧到连最新版本的ffmpeg都已经不包含了,所以对于我这个初学者来说太坑拉。 不过经过多次查找ffmpeg的头文件和结合网上的内容,终于成功可以解码拉。 现在贴出来。.

      795
      posts
    3. tipos de lenceria para restaurantes

      free dwarf sex movies

      2. Pursue an FFmpeg solution that stops or force a different pixel format for the Nikon source files compatible with yuv420p codecs like h264, DNxHD etc. Bug report to FFmpeg maybe, maybe there is already a solution. 3. Pursue a custom Kdenlive Encoding Profile that uses yuvj420p pixel format. Not sure this is going to work as FFmpeg is. ffmpeg -i blue.png -vf scale=out_color_matrix=bt709:flags=full_chroma_int+accurate_rnd,format=yuv420p yuv420p_709.yuv Originally Posted by colibri I wish to use a color pattern to verify what color space is using in android camera captured YUV, so try to use a simple sample and need to. I think your problem is the pixel format. From your Chrome bug report, the working video (working.mp4) has pix_fmt=yuv420p.The non-working video (qt_output.mp4) has pix_fmt=yuvj420p.In my testing, converting the problematic video to yuv makes it play. Converting the working video to yuvj makes it not play. I'm not sure why my analysis of the pixel format. Sep 19, 2016 · YUV420P_Player. YUV420P_Player using ffmpeg. Checkout. Checkout source code from git repository. Aug 06, 2019 · Stream #0:1: Video: mjpeg, yuvj420p, 350x350 [SAR 72:72 DAR 1:1] ffmpeg -i input.mp3 artwork.jpg ... REM The FFMPEG does not apply LowPass filter, but there is not so .... On the GX80, video is usually recorded in yuv420p, but video shot in stills mode (4k Photo Burst) is yuvj420p. My understanding is yuv420p uses color values from 16-235 whereas yuvj420p uses color values from 0-255. Is that the only difference? Which is technically better for grading in post? And. For ffmpeg, the trick to avoid this is to use ‘-pix_fmt yuvj420p’, which says to use the j-for-jpeg full range in a 420 YUV subsampled p-for-planar format. If you are starting with either RGB images, a 10/12 bit format, or a yuvj420p format video as input, then with the libx264 codec, you would get a full range output.. 由于我是需要将YUV转为MP4进行观察,所以选取恒定crfcrf是控制画面质量的,取值范围为0-51,其中0为无损模式,数值越大,画质越差,生成的文件越小。从主观上看,18~28是一个合理的范围。18被认为是视觉无损的(技术角度肯定有损)。ffmpeg. YUV420P格式图像叠加,拼接网上的很多代码都有问题!!!话不多说上代码:需要用到库:ffmpeg,用于解码h264,也可以直接用yuv图像进行拼接,只要记住yuv420p的数据存放格式和采样格式就不会出错。sdl2,用于实时显示#include <stdio.h>#include. . YUV420P format in FFmpeg video decoding. Reference article. When doing video playback based on FFmpeg decoding, it needs to involve the YUV and RGB formats of frame data storage, so to understand it, refer to the following blog post. images, as identified by ffmpeg, is yuvj422p. I would like to output these to a YUV4MPEG file as losslessly as possible, avoiding any ... yuv422p, yuv420p, yuv411p and gray pixel formats. Use -pix_fmt to select one. Stream #0.0: Video: rawvideo,. Combine a folder of .m4a files into a single .m4a Resize video to 720p Cut video Change Frame Rate Scale image Convert format Reverse video Concatenate videos Change. 2022. 7. 29. · I'm using ffmpeg (info below), and I've also tried the x264 encoder directly. ... Supported pixel formats: yuv420p yuvj420p yuv422p yuvj422p yuv444p yuvj444p nv12 nv16 nv21 yuv420p10le yuv422p10le yuv444p10le nv20le 10-bit pixel formats are: yuv420p10le, yuv422p10le, yuv444p10le. x264. You can also check x264 for supported bit depths:. YUV420P format in FFmpeg video decoding. Reference article. When doing video playback based on FFmpeg decoding, it needs to involve the YUV and RGB formats of frame data storage, so to understand it, refer to the following blog post.

      245
      posts
    4. nude indian actor

      ftv flashing video

      Pretty much the description. So using ffmpeg. If you have a yuvj420p video, in my case 5k HEVC, but I think h264 would also produce this problem, and you scale it using scale_npp filter, then encode it as h264, both sides using the NVENC/DEC you get a green video. If you use the NVDEC resize filter -resize, without scale_npp, the right video is produced. I think this is. ffmpeg decode command. GitHub Gist: instantly share code, notes, and snippets.. Apr 09, 2021 · Step 2: Set up your streams. In order to go live with FFMPEG, you need two key pieces of information: Your RTMP server. Your RTMP key. RTMP stands for Real-Time Messaging Protocol, and it's a protocol used to transmit large bits of audio and video. It's used by YouTube, Twitch, and other streaming services. Want me to save you some time, here .... Apr 09, 2021 · Step 2: Set up your streams. In order to go live with FFMPEG, you need two key pieces of information: Your RTMP server. Your RTMP key. RTMP stands for Real-Time Messaging Protocol, and it's a protocol used to transmit large bits of audio and video. It's used by YouTube, Twitch, and other streaming services. Want me to save you some time, here .... ffmpeg -ss 23 -i test.ogv -s 640x480 -f mjpeg -an -vframes 1 test.jpg. the output frame is not fully decoded. it did not seek to a keyframe and just dumps output. if insted one seeks on the decoded stream. the frame looks ok. ffmpeg -i test.ogv -ss 23 -s 640x480 -f mjpeg -an -vframes 1 test.jpg. Combine a folder of .m4a files into a single .m4a Resize video to 720p Cut video Change Frame Rate Scale image Convert format Reverse video Concatenate videos Change. Stream #0:0: Video: h264 (Main), yuvj420p(pc, bt709, progressive), 1920x1080, SAR 1:1 DAR 16:9, 25 fps, 25 tbr, 1k tbn, 50 tbc (default) the actual frame rate can be found out if you open the media in.mkv in a media player that lets you step one frame at the time; then count the steps needed to advance the playback time for 1 second, in my case .... ffmpeg-framerate 3 -i image_%03d.png -plays 0 output. apng Or a glob (at least on Linux & macOS): ffmpeg-framerate 1 -pattern_type glob -i "*.png" output. apng Set delay/timing with the -framerate input option as shown in the examples above. This is a private option of the image demuxer. Pipe. You can pipe the images to ffmpeg like you do in. For ffmpeg, the trick to avoid this is to use ‘-pix_fmt yuvj420p’, which says to use the j-for-jpeg full range in a 420 YUV subsampled p-for-planar format. If you are starting with either RGB images, a 10/12 bit format, or a yuvj420p format video as input, then with the libx264 codec, you would get a full range output.. Mar 08, 2011 · yuv420p yuvj420p yuv422p yuvj422p yuv444p yuvj444p gbrp yuv420p10le yuv422p10le yuv444p10le gbrp10le yuv420p12le yuv422p12le yuv444p12le gbrp12le gray gray10le gray12le (use with -strict 1 to force/allow choosen pix_fmt)---for a list of x265 {not ffmpeg} supported pixel formats use command below. Jul 24, 2022 · Download "Transport Stream" video streams. Locate the playlist file, e.g. using Chrome > F12 > Network > Filter: m3u8. Download and concatenate the video fragments: ffmpeg -i "path_to_playlist.m3u8" -c copy -bsf:a aac_adtstoasc out.mp4. If you get a "Protocol 'https not on whitelist 'file,crypto'!" error, add the protocol_whitelist option:. Nov 26, 2015 · The literal meaning of YUVJ420P is "YUV420P with JPEG color-range" (i.e. pixels use 0-255 range instead of 16-235 range, where 0 instead of 16 is black, and 255 instead of 235 is white). You can alternatively also do that using AV_PIX_FMT_YUV420P and then setting e.g. avctx->color_range to AVCOL_RANGE_JPEG. You probably don't care about that .... Jul 24, 2022 · Download "Transport Stream" video streams. Locate the playlist file, e.g. using Chrome > F12 > Network > Filter: m3u8. Download and concatenate the video fragments: ffmpeg -i "path_to_playlist.m3u8" -c copy -bsf:a aac_adtstoasc out.mp4. If you get a "Protocol 'https not on whitelist 'file,crypto'!" error, add the protocol_whitelist option:. Aug 09, 2019 · I have a bunch of .png files file_000.png file_005.png file_010.png I am using an inherited ffmpeg script to stitch together .png files into an .mp4 file. I don't understand all the flags, but I've. Jul 19, 2021 · This question already has an answer here : deprecated pixel format used, make sure you did set range correctly (1 answer) ffmpeg encoding requested yuv420p but got yuvj420p. Closed last year. I am running this script and I get this warning: "deprecated pixel format used, make sure you did set range correctly using ffmpeg".. removesilence - Removes all the silence periods from the audio stream. mssdemux - Parse and demultiplex a Smooth Streaming manifest into audio and video streams. spectrum - Run an FFT on the audio signal, output spectrum data. switchbin - Switch between sub-pipelines (paths) based on input caps. Pandas how to find column contains a certain value Recommended way to install multiple Python versions on Ubuntu 20.04 Build super fast web scraper with Python x100 than BeautifulSoup How to convert a SQL query result to a Pandas DataFrame in Python How to write a Pandas DataFrame to a .csv file in Python. For my purposes I have simply added AV_PIX_FMT_YUVJ420P to the query_formats enum in vf_blend.c and it works well. It would be great if the blend filter would work with yuvjxxxp formats out of the box, too.. For ffmpeg, the trick to avoid this is to use ‘-pix_fmt yuvj420p’, which says to use the j-for-jpeg full range in a 420 YUV subsampled p-for-planar format. If you are starting with either RGB images, a 10/12 bit format, or a yuvj420p format video as input, then with the libx264 codec, you would get a full range output.. Pretty much the description. So using ffmpeg. If you have a yuvj420p video, in my case 5k HEVC, but I think h264 would also produce this problem, and you scale it using scale_npp filter, then encode it as h264, both sides using the NVENC/DEC you get a green video. If you use the NVDEC resize filter -resize, without scale_npp, the right video is produced. I think this is. 2012. 10. 26. · Generated on Fri Oct 26 02:35:41 2012 for FFmpeg by 1.5.8 1.5.8. AV1 is an open source & royalty-free video codec developed by the Alliance for Open Media (AOMedia), a non-profit industry consortium. Depending on the use case, AV1 can achieve about 30% higher compression efficiency than VP9, and about 50% higher efficiency than H.264. There are currently three AV1 encoders supported by FFmpeg: libaom .... FFmpeg* 2.8 and forward includes Intel® Quick Sync Video accelerated h264_qsv, mpeg2_qsv, and hevc_qsv codecs. These provide a fast time-to-market path to server transcode solutions based on Intel® Xeon® processors with processor graphics. Installation is covered in a separate white paper: Intel® Quick Sync Video and capabilities of Intel®. 订阅专栏 使用 ffmpeg sws_scale NV12转YUV420P,自己创建linesize和地址参数 ffmpeg4.3.1版本 因为在网上没找到教怎么自己生成sws_scale ()函数参数的,我也是摸索了好几个钟头才弄清楚,所以,特写此文章。 我的整个工程Gitee 源码 目录: qt_gui_simple2complex/ source / 007_Embeded_Player 代码展示:. Description. Summary of the bug: I have same samples with lagarith YV12 (yuv420p). When the width is less than 32 fmppeg crash when converting to NV12. How to reproduce: % ffmpeg -i bw16x16_yv12.avi -vcodec rawvideo -pix_fmt nv12 bw16x16_nv12.avi ffmpeg version N-68141-g4280150 built on Dec 1 2014 22:02:05 with gcc 4.9.2 (GCC).

      782
      posts
  2. how to speed up edgenuity videos 2022

    1. freeroam server samp

      edgehack github

      Welcome to Cikimm.Com. Today ( Thursday 2 June 2022) Total Posted : 25952 Articles. View All Posts Pages. RANDOM POSTS. 99 Background Animasi Guru. Selain menambahkan background powerpoint kita juga bjsa menambahkan gambar animasi bergerak untuk melngkapi slide presentasi kita misalnya animasi bergerak fisika animasi bergerak matematika dan.

      595
      posts
    2. vatonage magic addon

      charlottesville moms

      Mar 30, 2012 · 2. Pursue an FFmpeg solution that stops or force a different pixel format for the Nikon source files compatible with yuv420p codecs like h264, DNxHD etc. Bug report to FFmpeg maybe, maybe there is already a solution. 3. Pursue a custom Kdenlive Encoding Profile that uses yuvj420p pixel format. Not sure this is going to work as FFmpeg is .... AV1 is an open source & royalty-free video codec developed by the Alliance for Open Media (AOMedia), a non-profit industry consortium. Depending on the use case, AV1 can achieve about 30% higher compression efficiency than VP9, and about 50% higher efficiency than H.264. There are currently three AV1 encoders supported by FFmpeg: libaom ....

      3.7k
      posts
    3. mlo mirror park houses

      warzone rebirth bunker codes

      unit 4 review ap world history

      1.3k
      posts
    4. cryptic messages generator

      pansexual profile picture girl

      1) ffmpeg is detecting incoming rtsp pixel format as yuvj420p . 2) ffmpeg can record it to avi container without re-encoding it again using above command 3) but ffmpeg cannot re-stream/save it to any flv container file without re-encoding again with libx264. my question is why we are hitting this issue for yuvj420p pixel format in ffmpeg ?. ffmpeg命令分析-yuv420p. 本系列主要分析各种 ffmpeg 命令参数 在代码里是如何实现的。. a.mp4下载链接: 百度网盘 ,提取码:nl0s 。. 上面的命令是转成 yuv 的封装格式,封装格式前面《ffmpeg命令分析-acc》已经讲过了,本文主要讲解,a.mp4 原本是有音频的,转成yuv. 参考文章在做基于FFmpeg解码的视频播放时,需要涉及到帧数据存储的YUV与RGB格式,所以了解了一下,参考下述博文。 ... YUV420P YUVJ420P FFMPEG 对MP4 视频解码转成YUV格式文件,Y格式文件,U格式文件,V格式文件的详细流程.

      1.2k
      posts
    5. asset copier roblox tools

      capcom showcase 2022 recap

      yuvj420p, so this doesn't make sense. The only supported colourspace for all mpeg4 asp encoder and decoder I know is yuv420p. Since it is the only supported colourspace in FFmpeg's encoder you don't have to specify it. Carl Eugen. I noticed when I read a video frame by frame via ffmpeg, my CPU usage explodes to 120%. ffmpeg-i video.webm thumb%04d.jpg -hide_banner But, if i simply watch a video locally it barely eats up any CPU. I'm guessing the issue here is that ffmpeg isn't using my hardware decoder (on OS X no GPU). How would I even check?. go to FFmpeg.

      640
      posts
    6. izuku power ranger wattpad

      paito malibu pools

      write a python program to append text to an existing file and display the text

      115
      posts
    7. peace treaty commercial actress

      ip man 2022

      For ffmpeg, the trick to avoid this is to use ‘-pix_fmt yuvj420p’, which says to use the j-for-jpeg full range in a 420 YUV subsampled p-for-planar format. If you are starting with either RGB images, a 10/12 bit format, or a yuvj420p format video as input, then with the libx264 codec, you would get a full range output.. Sep 19, 2016 · YUV420P_Player. YUV420P_Player using ffmpeg. Checkout. Checkout source code from git repository. Combine a folder of .m4a files into a single .m4a Resize video to 720p Cut video Change Frame Rate Scale image Convert format Reverse video Concatenate videos Change. For 10-bit the range is from 0 to 63. Most of the non-FFmpeg-based players cannot decode H.264 files holding lossless content. yuv420p is a common 8-bit and yuv420p10le a 10-bit pixel format. The library libx264 supports both, but you cannot combine 8-bit and 10-bit in the same command, you need two commands.. 订阅专栏 使用 ffmpeg sws_scale NV12转YUV420P,自己创建linesize和地址参数 ffmpeg4.3.1版本 因为在网上没找到教怎么自己生成sws_scale ()函数参数的,我也是摸索了好几个钟头才弄清楚,所以,特写此文章。 我的整个工程Gitee 源码 目录: qt_gui_simple2complex/ source / 007_Embeded_Player 代码展示:. 2017. 2. 4. · 색범위가 16-235가 되면, 완전한 검은색은 약간 하얗게 떠보이고, 완전한 흰색은 약간 바래져보이게 됩니다. 색영역을 0-255로 유지하려면 인코딩시에 아래에 빨갛게 표시한 옵션을 집어넣으면 됩니다. ffmpeg_x64 -i <input> -c:v libx264 -pix_fmt yuv420p -src_range 1 -dst_range 1. This is mainly due to the colorspace difference (YUV420 vs ARGB) and the conversion between these. There are three typical situations: If the source image is in lossless ARGB format, the spatial downsampling to YUV420 will introduce new colors that are harder to compress than the original ones. 2022. 7. 29. · You can select the output format of each frame with ffmpeg by specifying the audio and video codec and format. For example to compute the CRC of the input audio converted to PCM unsigned 8-bit and the input video converted to MPEG-2 video, use the command: ffmpeg -i INPUT -c:a pcm_u8 -c:v mpeg2video -f crc -. Jun 14, 2018 · NV12 will be converted to yuvj420p without yuv420p in the middle. The FFmpeg command to perform it for a h264 stream looks as follow: ffmpeg -hwaccel cuvid -c:v h264_cuvid -resize 120x70 -i video_source \ -vf "thumbnail_cuda=2,hwdownload,format=nv12" \ -vframes 1 frame.jpg. Jun 08, 2015 · A bit late to this, but for future reference, in case it helps anyone, here is how to deal with this problem with FFmpeg. When exporting, say, an uncompressed AVI from After Effects, sometimes the FFmpeg conversion seems to lack contrast, as if the range was being compressed. Adding -pix_fmt yuvj420p. . Mar 23, 2015 · Of course you can change yuvj420p video, you can specify the conversion with -pix_fmt yuv420p in ffmpeg, or add pix_fmt=yuv420p in mlt / kdenlive. Or you risk youtube not recognising your full range file and doing the conversion poorly, or not at all. As you can see in your crushed white / black video upload..

      1.5k
      posts
    8. dell idrac take disk offline

      darr movie watch online with english subtitles

      This question already has an answer here : deprecated pixel format used, make sure you did set range correctly (1 answer) ffmpeg encoding requested yuv420p but got yuvj420p. Closed last year. I am running this script and I get this warning: "deprecated pixel format used, make sure you did set range correctly using ffmpeg". 2. Pursue an FFmpeg solution that stops or force a different pixel format for the Nikon source files compatible with yuv420p codecs like h264, DNxHD etc. Bug report to FFmpeg maybe, maybe there is already a solution. 3. Pursue a custom Kdenlive Encoding Profile that uses yuvj420p pixel format. Not sure this is going to work as FFmpeg is. 2022. 7. 30. · 一些背景: FFmpeg (libav) 术语中的yuvj420p 应用 YUV420“全范围”格式。 我想yuvj 中的j 来自JPEG - JPEG 图像使用“全范围”YUV420 格式。. 大部分视频文件使用“有限范围”(或电视范围)YUV 格式。 在“有限范围”中,Y 范围为 [16, 235],U 范围为 [16, 240],V 范围为 [0, 240]。. 由于我是需要将YUV转为MP4进行观察,所以选取恒定crfcrf是控制画面质量的,取值范围为0-51,其中0为无损模式,数值越大,画质越差,生成的文件越小。从主观上看,18~28是一个合理的范围。18被认为是视觉无损的(技术角度肯定有损)。ffmpeg. For my purposes I have simply added AV_PIX_FMT_YUVJ420P to the query_formats enum in vf_blend.c and it works well. It would be great if the blend filter would work with yuvjxxxp formats out of the box, too.. YUV420P format in FFmpeg video decoding. Reference article. When doing video playback based on FFmpeg decoding, it needs to involve the YUV and RGB formats of frame data storage, so to understand it, refer to the following blog post. 订阅专栏 使用 ffmpeg sws_scale NV12转YUV420P,自己创建linesize和地址参数 ffmpeg4.3.1版本 因为在网上没找到教怎么自己生成sws_scale ()函数参数的,我也是摸索了好几个钟头才弄清楚,所以,特写此文章。 我的整个工程Gitee 源码 目录: qt_gui_simple2complex/ source / 007_Embeded_Player 代码展示:. 2019. 3. 1. · You should close your 'bug-report'. It is not "his" bug report. This was reported by @Iamanorange.. @khawar512 ffmpeg uses ffmpeg -i input.j2k -c:v libopenjpeg -pix_fmt yuv420p out.j2k for lossless, add -compression_level xx for lossy, native encoder (-c:v jpeg2000 -pred 1, where -pred 1 is for lossless) is still really broken. You can also use yuvj420p for full range and. 如果你的YUV格式为YUV422p,因为软件默认的YUV格式为420p,所以你需要声明你的YUV格式,指令如下: # ./ffmpeg -s 1920*1080 -pix_fmt yuv422p -i source.YUV -r 25 -b 8000k -y source.mp4 。 第一,不要享受懒惰。 如果你从内心享受懒惰的过程就不要说自己累。 第二, 让身体动起来。 要运动, 多见朋友, 要工作, 不要喝酒,早睡早起。 第三,任何事情,今天开始就要去做。 如果现在不做就说明你还在享受着懒惰。 如果做不到, 就请不要抱怨。 标签: 转格式, YUV, ffmpeg 好文要顶 关注我 收藏该文 abamon-joy 粉丝 - 0 关注 - 8 +加关注 1 0 « 上一篇: 排序算法总结. I've downloaded your video, 20x2 is a weird resolution, most ffmpeg decoders work correctly only with multiple of 16, I fear H.264 requires multiple of 32.. ffmpeg -hide_banner -y -i "f%d.jpg" -c:v libx264 -vf format=yuv420p -filter:v fps=fps=30 -movflags +faststart -an "out.mp4" As I mentioned above, these work only about 50% of the time. So I would imagine that the ffmpeg library makes a decision on some of the JPEG data which are incompatible with the NVDEC decoder. For ffmpeg, the trick to avoid this is to use ‘-pix_fmt yuvj420p’, which says to use the j-for-jpeg full range in a 420 YUV subsampled p-for-planar format. If you are starting with either RGB images, a 10/12 bit format, or a yuvj420p format video as input, then with the libx264 codec, you would get a full range output.. Nov 05, 2018 · Use yuv420p There is no such thing as yuv480p or yuv720p because it is not tied to the video height. yuv420p is a chroma subsampling scheme, and the p stands for planar, not progressive. In ffmpeg yuv420p is called a pixel format. You can use the format filter, or the legacy -pix_fmt option, to set the pixel format. Example:. That command reports: encoder : Lavf57.83.100 ,... Video: h264 (libx264) ... yuv420p (pc, progressive). But ffplay out.mov complains "deprecated pixel format used, make sure you did set range correctly." ffprobe out.mov agrees that the result is yuvj420p, not my requested yuv420p. Even diff reports that the result is bitwise identical to that. 2022. 7. 29. · I'm using ffmpeg (info below), and I've also tried the x264 encoder directly. ... Supported pixel formats: yuv420p yuvj420p yuv422p yuvj422p yuv444p yuvj444p nv12 nv16 nv21 yuv420p10le yuv422p10le yuv444p10le nv20le 10-bit pixel formats are: yuv420p10le, yuv422p10le, yuv444p10le. x264. You can also check x264 for supported bit depths:. 我们可以使用ffplay来播放我们最终生成的rgb24.yuv文件. YUV420P转RGB. 你也可以根据上面的例子一样,直接使用Clion转换完之后. 2022. 5. 30. · Add a comment. 1. If you don't have a high-bit-depth video card and monitor, you then you can just make a temporary lossless file for viewing that will put the same pixels on your monitor: ffmpeg -i input.mp4 -codec copy -pix_fmt yuv420p -c:v libx264 -qp 0 -preset ultrafast -movflags +faststart output.mp4. or -c:v utvideo might be faster to encode. Pandas how to find column contains a certain value Recommended way to install multiple Python versions on Ubuntu 20.04 Build super fast web scraper with Python x100 than BeautifulSoup How to convert a SQL query result to a Pandas DataFrame in Python How to write a Pandas DataFrame to a .csv file in Python. 1) ffmpeg is detecting incoming rtsp pixel format as yuvj420p . 2) ffmpeg can record it to avi container without re-encoding it again using above command 3) but ffmpeg cannot re-stream/save it to any flv container file without re-encoding again with libx264. my question is why we are hitting this issue for yuvj420p pixel format in ffmpeg ?. images, as identified by ffmpeg, is yuvj422p. I would like to output these to a YUV4MPEG file as losslessly as possible, avoiding any ... yuv422p, yuv420p, yuv411p and gray pixel formats. Use -pix_fmt to select one. Stream #0.0: Video: rawvideo,. yuvj420p, so this doesn't make sense. The only supported colourspace for all mpeg4 asp encoder and decoder I know is yuv420p. Since it is the only supported colourspace in FFmpeg's encoder you don't have to specify it. Carl Eugen. images, as identified by ffmpeg, is yuvj422p. I would like to output these to a YUV4MPEG file as losslessly as possible, avoiding any ... yuv422p, yuv420p, yuv411p and gray pixel formats. Use -pix_fmt to select one. Stream #0.0: Video: rawvideo,. 2011. 4. 7. · I believe the only difference between yuv j 420p and yuv420p is that the former uses "Full" 0-255 color value range (also known as "PC", "JPEG" color range), while the latter uses "Limited" color range (16-235 = "TV" = "MPEG"). After looking into different FFmpeg flags, I've come up with the following commandline: ffmpeg -colorspace bt709. Mar 22, 2019 · I have an avi file that uses yuvj420p according to ffprobe. ... 2007-2018 the FFmpeg developers built with gcc 7 (Ubuntu 7.3.0-27ubuntu1~18.04). You can see the resulting video below: You can add-vf format=yuv420p or -pix_fmt yuv420p (when your output is H.264) to increase the compatibility of your video with a wide range of players: $ ffmpeg-framerate 1 -i happy%d.jpg -c:v libx264 -r 30. 如果你的YUV格式为YUV422p,因为软件默认的YUV格式为420p,所以你需要声明你的YUV格式,指令如下: # ./ffmpeg -s 1920*1080 -pix_fmt yuv422p -i source.YUV -r 25 -b 8000k -y source.mp4 。 第一,不要享受懒惰。 如果你从内心享受懒惰的过程就不要说自己累。 第二, 让身体动起来。 要运动, 多见朋友, 要工作, 不要喝酒,早睡早起。 第三,任何事情,今天开始就要去做。 如果现在不做就说明你还在享受着懒惰。 如果做不到, 就请不要抱怨。 标签: 转格式, YUV, ffmpeg 好文要顶 关注我 收藏该文 abamon-joy 粉丝 - 0 关注 - 8 +加关注 1 0 « 上一篇: 排序算法总结. 2. Pursue an FFmpeg solution that stops or force a different pixel format for the Nikon source files compatible with yuv420p codecs like h264, DNxHD etc. Bug report to FFmpeg maybe, maybe there is already a solution. 3. Pursue a custom Kdenlive Encoding Profile that uses yuvj420p pixel format. Not sure this is going to work as FFmpeg is. 2022. 7. 30. · 一些背景: FFmpeg (libav) 术语中的yuvj420p 应用 YUV420“全范围”格式。 我想yuvj 中的j 来自JPEG - JPEG 图像使用“全范围”YUV420 格式。. 大部分视频文件使用“有限范围”(或电视范围)YUV 格式。 在“有限范围”中,Y 范围为 [16, 235],U 范围为 [16, 240],V 范围为 [0, 240]。. ffmpeg-20150601-223924.log (15.2 KB) - added by tapas 7 years ago. rtsp streaming failed for yuvj420p h264 video format ffmpeg-20150601-222202.log (4.6 KB) - added by tapas 7 years ago. ffmpeg cannot convert avi to flv format. Download all attachments as: .zip. Apr 19, 2020 · When I encode with ffmpeg on Ubuntu 18, the default encoder h264 (libx264) uses by default the pixel format yuvj420p. But https://ffmpeg.org/doxygen/trunk/pixfmt_8h_source.html says that AV_PIX_FMT_YUVJ420P is "full scale (JPEG), deprecated in favor of AV_PIX_FMT_YUV420P and setting color_range.".

      2.8k
      posts
  3. a graphic look inside john wayne gacy

    1. malibu wide plank french oak fortuna

      lt02wifi lineage

      medicine for pigs to grow fast
      1.3k
      posts
    2. bmw ista windows 11

      mipi bridge

      step mom and son wedding dance songs country
      229
      posts
    3. dave matthews february 2023

      erotic sexy body massage in kl

      vulpine voice kemono party
      649
      posts
    4. what does observation haki do in blox fruits

      rachel mae buffett released

      genesis bible study workbook pdf
      153
      posts
    5. university of louisville salary database 2022

      mahindra hydraulic oil specs

      cranes and derricks installed on floating surfaces must have a

      922
      posts
    6. fia gt4 regulations

      strength and weaknesses of the movie heneral luna

      papermc command list
      864
      posts
    7. foot fetish hypnosis

      roto gr 2090k

      sl wal kata 2020
      371
      posts
    8. the disposition message is denied by policy module

      genetics of words uebert angel pdf free download

      lesbians erect nipples
      22
      posts
    9. motawif lawsuit

      mc command center sims 4

      prop 65 shortform warning
      344
      posts
    10. smart trader binary

      obtener imei de celular robado

      fairy wings costume
      345
      posts
    11. relief factor snake oil

      pokemon sun rare candy cheat codes citra

      high school cheer teams near Bandung Bandung City West Java
      185
      posts
    12. r7 240 fake id

      multi device bluetooth keyboard jelly comb

      free gcode generator
      29
      posts
    13. ffxi domain invasion bot

      howa 1500 muzzle brake thread size

      wife asks me to eat her sisters pussy
      17
      posts
  • visa prepaid card india

  • miami swim week 2019 models names

    1. mcculloch chainsaw ignition coil
      scorpio man chasing capricorn woman

      august events philippines 2022

    2. best dxf viewer
      2004 chevy trailblazer evap canister removal

      dysrhythmia basic a relias answers

    3. charli d39amelio most liked tiktok
      radiosoftware ru

      When I encode with ffmpeg on Ubuntu 18, the default encoder h264 (libx264) uses by default the pixel format yuvj420p. But https://ffmpeg.org/doxygen/trunk/pixfmt_8h_source.html says that AV_PIX_FMT_YUVJ420P is "full scale (JPEG), deprecated in favor of AV_PIX_FMT_YUV420P and setting color_range.".

    4. dell xps 8950 audio ports
      material dashboard pro angular free download

      power automate manually trigger a flow

    5. elders real estate holiday rentals
      very tiny small little girls naked

      feelworld livepro l1 software

  • heluwen kello

    • not recognised by ffmpeg/ffprobe. Complete, uncut console output missing. ... Stream #0:0: Video: h264, yuvj420p, 1920x1080 [SAR 1:1 DAR 16:9], q=2-31, 25 fps, 90k .... Mar 22, 2019 · I have an avi file that uses yuvj420p according to ffprobe. ... 2007-2018 the FFmpeg developers built with gcc 7 (Ubuntu 7.3.0-27ubuntu1~18.04). Apr 07, 2011 · I believe the only difference between yuv j 420p and yuv420p is that the former uses "Full" 0-255 color value range (also known as "PC", "JPEG" color range), while the latter uses "Limited" color range (16-235 = "TV" = "MPEG"). After looking into different FFmpeg flags, I've come up with the following commandline:. YUVJ420P的字面含义是"使用了JPEG颜色范围的YUV420P,像素使用表示颜色的数值范围发生了变化。 YUV420p的像素颜色范围是 [16,235],16表示黑色,235表示白色 YUVJ420P的像素颜色范围是 [0,255]。 0表示黑色,255表示白色 从这里来看,貌似是YUVJ420P表示的更准确一下。 区别的缘由 YUV420p对应的是电视。 YUVJ420P对应的是显示器。 灰阶 何谓 灰阶 ? 通常来说,液晶屏幕上人们肉眼所见的一个点,即一个像素,它是由红、绿、蓝 (RGB)三个子像素组成的。 每一个子像素,其背后的光源都可以显现出不同的亮度级别。 而灰阶代表了由最暗到最亮之间不同亮度的层次级别。 这中间层级越多,所能够呈现的画面效果也就越细腻。. Combine a folder of .m4a files into a single .m4a Resize video to 720p Cut video Change Frame Rate Scale image Convert format Reverse video Concatenate videos Change. Set the bit rate in bits/s. FFmpeg’s b option is expressed in bits/s, while opusenc’s bitrate in kilobits/s. vbr (vbr, hard-cbr, and cvbr) Set VBR mode. The FFmpeg vbr option has the following valid arguments, with the opusenc equivalent options in parentheses: ‘off (hard-cbr)’ Use constant bit rate encoding. ‘on (vbr)’. 2022. 1. 22. · Most of the non-FFmpeg-based players cannot decode H.264 files holding lossless content. yuv420p is a common 8-bit and yuv420p10le a 10-bit pixel format. The library libx264 supports both, but you cannot combine 8-bit and 10-bit.
    • power bi center align values in table
    • 2022. 7. 30. · 一些背景: FFmpeg (libav) 术语中的yuvj420p 应用 YUV420“全范围”格式。 我想yuvj 中的j 来自JPEG - JPEG 图像使用“全范围”YUV420 格式。. 大部分视频文件使用“有限范围”(或电视范围)YUV 格式。 在“有限范围”中,Y 范围为 [16, 235],U 范围为 [16, 240],V 范围为 [0, 240]。. ffmpeg -s 1024x768 -pix_fmt yuv420p -i P0001.yuv P0001-noopt.png Will show the artifacts you see ffmpeg -s 1024x768 -pix_fmt yuv420p -i P0001.yuv -sws_flags +accurate_rnd+full_chroma_int P0001-arfc.png Doesn't produce them, so it looks like the yuv its self is sound, but the accuracy of yuviewer/ffmpeg default is the issue when converting back .... 1) ffmpeg is detecting incoming rtsp pixel format as yuvj420p . 2) ffmpeg can record it to avi container without re-encoding it again using above command 3) but ffmpeg cannot re-stream/save it to any flv container file without re-encoding again with libx264. my question is why we are hitting this issue for yuvj420p pixel format in ffmpeg ?. 本人用的联想笔记本自带的摄像头像素格式为:yuyv422,可以通过源码中的av_dump_format函数或者pCodecCtx->pix_fmt 查看摄像头原始格式; 4. 最后输出的为不含时间信息的裸原始视频帧文件,共100帧,使用 vooya 工具查看(备份: https://pan.baidu.com/s/1XQ-fbHN7reUdVS4qvGGFWA ),注意选择正确的查看格式。 5. 如果使用ffmpeg的命令来转换yuv420p、yuyv422之间的格式,则: ffmpeg -pix_fmt yuv420p -s 640x480 -i a.yuv -pix_fmt yuyv422 b.yuv 编程则是使用:sws_scale 函数完成,参考源码中的使用。 dijkstar. ffmpeg -ss 23 -i test.ogv -s 640x480 -f mjpeg -an -vframes 1 test.jpg. the output frame is not fully decoded. it did not seek to a keyframe and just dumps output. if insted one seeks on the decoded stream. the frame looks ok. ffmpeg -i test.ogv -ss 23 -s 640x480 -f mjpeg -an -vframes 1 test.jpg. May 03, 2021 · As I saw in other closed issues, the patched version can work with yuvj420p, but in my deploy it isn't supported. ... Nano with Jetpack 4.5.1. ffmpeg version c9f3835 ....
    • Jul 03, 2008 · The player is ubiquitous, it offers good quality to filesize, and (importantly) there are good open source tools to handle its manipulation. The open source FFMPEG can be used to query video files and learn their details (resolution, format, etc), as well as actually perform a transcode from one format to another. The details are important, as .... For ffmpeg, the trick to avoid this is to use ‘-pix_fmt yuvj420p’, which says to use the j-for-jpeg full range in a 420 YUV subsampled p-for-planar format. If you are starting with either RGB images, a 10/12 bit format, or a yuvj420p format video as input, then with the libx264 codec, you would get a full range output.. Mar 30, 2012 · 2. Pursue an FFmpeg solution that stops or force a different pixel format for the Nikon source files compatible with yuv420p codecs like h264, DNxHD etc. Bug report to FFmpeg maybe, maybe there is already a solution. 3. Pursue a custom Kdenlive Encoding Profile that uses yuvj420p pixel format. Not sure this is going to work as FFmpeg is .... ffmpeg-20150601-223924.log (15.2 KB) - added by tapas 7 years ago. rtsp streaming failed for yuvj420p h264 video format ffmpeg-20150601-222202.log (4.6 KB) - added by tapas 7 years ago. ffmpeg cannot convert avi to flv format. Download all attachments as: .zip. Adding filter to convert pixel format from yuv420p to yuvj420p solved the problem, but since ffmpeg version n2.1 there is a new problem reported: [swscaler @ 0xb12fea0] deprecated pixel format used, make sure you did set range correctly. Deprecated pixel format message is observed in custom applications which use ffmpeg libraries as well as in .... Jul 19, 2021 · This question already has an answer here : deprecated pixel format used, make sure you did set range correctly (1 answer) ffmpeg encoding requested yuv420p but got yuvj420p. Closed last year. I am running this script and I get this warning: "deprecated pixel format used, make sure you did set range correctly using ffmpeg".. On the GX80, video is usually recorded in yuv420p, but video shot in stills mode (4k Photo Burst) is yuvj420p. My understanding is yuv420p uses color values from 16-235 whereas yuvj420p uses color values from 0-255. Is that the only difference? Which is technically better for grading in post? And.
    • Aug 06, 2019 · Stream #0:1: Video: mjpeg, yuvj420p, 350x350 [SAR 72:72 DAR 1:1] ffmpeg -i input.mp3 artwork.jpg ... REM The FFMPEG does not apply LowPass filter, but there is not so .... 2021. 7. 28. · Command Used: ffmpeg -f dshow -list_options true -i video="AVerMedia HD Capture GC573 1" FFMPEG: what is the best pixel format to use for videos you want to put on a smartphone and share with others? This commit does not belong to any branch on this repository, and may belong to a fork outside of the repository. and I have this warning the yuvj420p was. Dec 03, 2017 · The warning occurs when converting from a yuv420p source to JPEG, which makes ffmpeg choose yuvj420p as output format. That format is required for writing files with the mjpeg encoder. These two pixel formats have different color ranges: the former is from 16–235, which is "limited range" (also called "MPEG" range), the latter defaults to 0 .... This question already has an answer here : deprecated pixel format used, make sure you did set range correctly (1 answer) ffmpeg encoding requested yuv420p but got yuvj420p. Closed last year. I am running this script and I get this warning: "deprecated pixel format used, make sure you did set range correctly using ffmpeg". 2018. 9. 12. · Expected behavior normal visualization of stream Actual behavior "[ffmpeg] AVHWFramesContext unsupported sw format: yuvj420p" ... mpv version and platform v0.29 Reproduction steps $ mpv --vo=vdpau --hwdec==vdpau --hwdec-codecs=all udp://... Expected behavior normal visualization of stream Actual behavior &. Nov 05, 2018 · Use yuv420p There is no such thing as yuv480p or yuv720p because it is not tied to the video height. yuv420p is a chroma subsampling scheme, and the p stands for planar, not progressive. In ffmpeg yuv420p is called a pixel format. You can use the format filter, or the legacy -pix_fmt option, to set the pixel format. Example:. Jul 15, 2021 · I have a video.mov, codec hvc1, pix fmt yuvj420p. And I tried to transcode it into mp4(h264) by ffmpeg with hwaccel. My command is. ffmpeg -y -hwaccel cuvid -c:v hevc_cuvid -i hevc.mov -c:v h264_nvenc output.mp4. Oct 26, 2021 · Video Encoding. The quality of encoded video depends on various features in use by the encoder. To encode a 720p YUV, use the following command. ffmpeg -y -vsync 0 –s 1280x720 –i input.yuv -c:v h264_nvenc output.mp4. This generates the output file in MP4 format (output.mp4) with H264 encoded video.. Incompatible pixel format 'yuv420p' for codec 'mjpeg', auto-selecting format 'yuvj420p' Adding filter to convert pixel format from yuv420p to yuvj420p solved the problem, but since ffmpeg version n2.1 there is a new problem reported: [swscaler @ 0xb12fea0] deprecated pixel format used, make sure you did set range correctly. 2022. 5. 31. · $\begingroup$ The difference between yuvj420p and yuv420p isn't the bit depth, but the range. yuv420p has the range 16-235 whereas yuvj420p has the full range, 0-255. Moreover, your input file is encoded with profile High, which doesn't support 10-bit.You'll need High 10, High 4:2:2 or High 4:4:4 Predictive for 10-bit support. So basically your input seems to be 8-bit, and. 2022. 7. 30. · 一些背景: FFmpeg (libav) 术语中的yuvj420p 应用 YUV420“全范围”格式。 我想yuvj 中的j 来自JPEG - JPEG 图像使用“全范围”YUV420 格式。. 大部分视频文件使用“有限范围”(或电视范围)YUV 格式。 在“有限范围”中,Y 范围为 [16, 235],U 范围为 [16, 240],V 范围为 [0, 240]。. When I encode with ffmpeg on Ubuntu 18, the default encoder h264 (libx264) uses by default the pixel format yuvj420p. But https://ffmpeg.org/doxygen/trunk/pixfmt_8h_source.html says that AV_PIX_FMT_YUVJ420P is "full scale (JPEG), deprecated in favor of AV_PIX_FMT_YUV420P and setting color_range.". Programmer Documentation ¶. OpenImageIO (OIIO) is a library for reading, writing, and processing images in a wide variety of file formats, using a format-agnostic API. OIIO emphasizes formats and functionality used in professional, large-scale visual effects and feature film animation, and it is used ubiquitously by large VFX studios, as well. 2011. 4. 7. · I believe the only difference between yuv j 420p and yuv420p is that the former uses "Full" 0-255 color value range (also known as "PC", "JPEG" color range), while the latter uses "Limited" color range (16-235 = "TV" = "MPEG"). After looking into different FFmpeg flags, I've come up with the following commandline: ffmpeg -colorspace bt709. Nov 05, 2021 · After installing FFmpeg through "sudo apt install ffmpeg " on Xavier, what ffmpeg command line can be used on AGX to use the NVENC/NVDEC for H.264 and H.265 HW acceleration? For example the following commands can be used on PC Host: ffmpeg -f rawvideo -s:v 2880x1860 -r 10 -pix_fmt >yuv420p</b> -i input.yuv -vcodec h264_nvenc. . For my purposes I have simply added AV_PIX_FMT_YUVJ420P to the query_formats enum in vf_blend.c and it works well. It would be great if the blend filter would work with yuvjxxxp formats out of the box, too.. Jul 15, 2021 · I have a video.mov, codec hvc1, pix fmt yuvj420p. And I tried to transcode it into mp4(h264) by ffmpeg with hwaccel. My command is. ffmpeg -y -hwaccel cuvid -c:v hevc_cuvid -i hevc.mov -c:v h264_nvenc output.mp4. 2017. 2. 4. · 색범위가 16-235가 되면, 완전한 검은색은 약간 하얗게 떠보이고, 완전한 흰색은 약간 바래져보이게 됩니다. 색영역을 0-255로 유지하려면 인코딩시에 아래에 빨갛게 표시한 옵션을 집어넣으면 됩니다. ffmpeg_x64 -i <input> -c:v libx264 -pix_fmt yuv420p -src_range 1 -dst_range 1. not recognised by ffmpeg/ffprobe. Complete, uncut console output missing. ... Stream #0:0: Video: h264, yuvj420p, 1920x1080 [SAR 1:1 DAR 16:9], q=2-31, 25 fps, 90k .... 2022. 1. 22. · Most of the non-FFmpeg-based players cannot decode H.264 files holding lossless content. yuv420p is a common 8-bit and yuv420p10le a 10-bit pixel format. The library libx264 supports both, but you cannot combine 8-bit and 10-bit. removesilence - Removes all the silence periods from the audio stream. mssdemux - Parse and demultiplex a Smooth Streaming manifest into audio and video streams. spectrum - Run an FFT on the audio signal, output spectrum data. switchbin - Switch between sub-pipelines (paths) based on input caps. Welcome to Cikimm.Com. Today ( Thursday 2 June 2022) Total Posted : 25952 Articles. View All Posts Pages. RANDOM POSTS. 99 Background Animasi Guru. Selain menambahkan background powerpoint kita juga bjsa menambahkan gambar animasi bergerak untuk melngkapi slide presentasi kita misalnya animasi bergerak fisika animasi bergerak matematika dan. 2. Pursue an FFmpeg solution that stops or force a different pixel format for the Nikon source files compatible with yuv420p codecs like h264, DNxHD etc. Bug report to FFmpeg maybe, maybe there is already a solution. 3. Pursue a custom Kdenlive Encoding Profile that uses yuvj420p pixel format. Not sure this is going to work as FFmpeg is. AV1 is an open source & royalty-free video codec developed by the Alliance for Open Media (AOMedia), a non-profit industry consortium. Depending on the use case, AV1 can achieve about 30% higher compression efficiency than VP9, and about 50% higher efficiency than H.264. There are currently three AV1 encoders supported by FFmpeg: libaom .... For my purposes I have simply added AV_PIX_FMT_YUVJ420P to the query_formats enum in vf_blend.c and it works well. It would be great if the blend filter would work with yuvjxxxp formats out of the box, too.. A bit late to this, but for future reference, in case it helps anyone, here is how to deal with this problem with FFmpeg. When exporting, say, an uncompressed AVI from After Effects, sometimes the FFmpeg conversion seems to lack contrast, as if the range was being compressed. Adding -pix_fmt yuvj420p. Jul 27, 2022 · Cut a piece out of a video. Use -ss to set the start time in the video and -t to set the duration of the segment you want to cut. ffmpeg -ss 00:01:32 -i input.mp4 -c:v copy -c:a copy -t 00:00:10 output.mp4. The above command seeks to 1.32 minutes in the video, and then outputs the next 10 seconds.. Stream #0:0: Video: h264 (Main), yuvj420p(pc, bt709, progressive), 1920x1080, SAR 1:1 DAR 16:9, 25 fps, 25 tbr, 1k tbn, 50 tbc (default) the actual frame rate can be found out if you open the media in.mkv in a media player that lets you step one frame at the time; then count the steps needed to advance the playback time for 1 second, in my case .... . 2012. 10. 26. · Generated on Fri Oct 26 02:35:41 2012 for FFmpeg by 1.5.8 1.5.8. 2022. 7. 30. · 一些背景: FFmpeg (libav) 术语中的yuvj420p 应用 YUV420“全范围”格式。 我想yuvj 中的j 来自JPEG - JPEG 图像使用“全范围”YUV420 格式。. 大部分视频文件使用“有限范围”(或电视范围)YUV 格式。 在“有限范围”中,Y 范围为 [16, 235],U 范围为 [16, 240],V 范围为 [0, 240]。. Jul 03, 2008 · The player is ubiquitous, it offers good quality to filesize, and (importantly) there are good open source tools to handle its manipulation. The open source FFMPEG can be used to query video files and learn their details (resolution, format, etc), as well as actually perform a transcode from one format to another. The details are important, as .... 2. Pursue an FFmpeg solution that stops or force a different pixel format for the Nikon source files compatible with yuv420p codecs like h264, DNxHD etc. Bug report to FFmpeg maybe, maybe there is already a solution. 3. Pursue a custom Kdenlive Encoding Profile that uses yuvj420p pixel format. Not sure this is going to work as FFmpeg is.
  • typeorm left join schoolgirls punished naked
    bnb gas fee faucetmy billionaire mom movie jesus 3d model shroud of turin
    tesla screen for nissan armadawife pumps breast forced sex stories
    ghostface text to speech downloadseaborn plot size
  • stormworks how to measure speed

    • Total Topics
      whitney family farms
    • Total Posts
      geeetech a10 bltouch firmware
plotly js subplots with multiple traces